查看: 40680|回复: 4

[2016]热情的邻居/那个性感的邻居 超清韩语中字[1920x1080p][韩国][含花絮][BT迅雷][1.84GB]

[复制链接]

14

主题

15

帖子

492

积分

中级会员

Rank: 3Rank: 3

积分
492
影币
477
发表于 2018-8-20 21:25:05 | 显示全部楼层 |阅读模式
电影筛选
封面:
按类型: 剧情片 
按地区: 韩国
按年份: 90年代
按画质: 1080P(i)
豆瓣评分: 0
剧情介绍: 男主是被妻子嫌弃的无业游民,女主生活在丈夫的家庭暴力的阴影之下。作为邻居的他们,终于在某一天相遇了。
下载类型: 百度云 BT种子 
影片大小: 点击查看
片长: 1.10.13
※※※※※※※ 参数信息 ※※※※※※※
General
Unique ID                      : 173173137694851344596339628619006465181 (0x8247EEE2973CF13183E8AB8C363FD49D)
Format                         : Matroska
Format version                 : Version 4 / Version 2
File size                      : 1.85 GiB
Duration                       : 1 h 10 min
Overall bit rate               : 3 770 kb/s
Movie name                     : KOOK
Encoded date                   : UTC 2018-08-19 14:34:22
Writing application            : mkvmerge v9.4.2 ('So High') 64bit
Writing library                : libebml v1.3.4 + libmatroska v1.4.5
Attachments                    : 正式海报.jpg / fzlbfw.ttf / fzlbjw.ttf
Video
ID                             : 1
Format                         : AVC
Format/Info                    : Advanced Video Codec
Format profile                 : High@L4
Format settings, CABAC         : Yes
Format settings, ReFrames      : 4 frames
Codec ID                       : V_MPEG4/ISO/AVC
Duration                       : 1 h 10 min
Bit rate                       : 3 560 kb/s
Width                          : 1 920 pixels
Height                         : 1 080 pixels
Display aspect ratio           : 16:9
Frame rate mode                : Constant
Frame rate                     : 24.000 FPS
Color space                    : YUV
Chroma subsampling             : 4:2:0
Bit depth                      : 8 bits
Scan type                      : Progressive
Bits/(Pixel*Frame)             : 0.072
Stream size                    : 1.75 GiB (94%)
Writing library                : x264 core 148 r2721+46 0c4b09a xiaowan [8-bit@all X86_64]
Encoding settings              : cabac=1 / ref=4 / deblock=1:1:1 / analyse=0x3:0x133 / me=umh / subme=10 / psy=1 / fade_compensate=0.00 / psy_rd=0.30:0.00 / mixed_ref=1 / me_range=24 / chroma_me=1 / trellis=2 / 8x8dct=1 / cqm=0 / deadzone=21,11 / fast_pskip=1 / chroma_qp_offset=-2 / threads=12 / lookahead_threads=1 / sliced_threads=0 / nr=0 / decimate=1 / interlaced=0 / bluray_compat=0 / constrained_intra=0 / fgo=0 / bframes=3 / b_pyramid=2 / b_adapt=2 / b_bias=0 / direct=3 / weightb=1 / open_gop=0 / weightp=2 / keyint=240 / keyint_min=1 / scenecut=60 / intra_refresh=0 / rc_lookahead=60 / rc=2pass / mbtree=1 / bitrate=3560 / ratetol=1.0 / qcomp=0.50 / qpmin=0:0:0 / qpmax=69:69:69 / qpstep=4 / cplxblur=20.0 / qblur=0.5 / ip_ratio=1.40 / aq=2:0.80 / aq-sensitivity=10.00 / aq-factor=1.00:1.00:1.00 / aq2=0 / aq3=0
Default                        : Yes
Forced                         : No
Color range                    : Limited
Matrix coefficients            : BT.709
Audio
ID                             : 2
Format                         : AAC
Format/Info                    : Advanced Audio Codec
Format profile                 : LC
Codec ID                       : A_AAC
Duration                       : 1 h 10 min
Bit rate                       : 192 kb/s
Channel(s)                     : 2 channels
Channel positions              : Front: L R
Sampling rate                  : 44.1 kHz
Frame rate                     : 43.066 FPS (1024 spf)
Compression mode               : Lossy
Stream size                    : 96.4 MiB (5%)
Default                        : Yes
Forced                         : No
Text #1
ID                             : 3
Format                         : ASS
Codec ID                       : S_TEXT/ASS
Codec ID/Info                  : Advanced Sub Station Alpha
Duration                       : 1 h 9 min
Bit rate                       : 54 b/s
Count of elements              : 473
Compression mode               : Lossless
Stream size                    : 27.8 KiB (0%)
Title                          : 简体字幕
Language                       : Chinese
Default                        : Yes
Forced                         : No
Text #2
ID                             : 4
Format                         : ASS
Codec ID                       : S_TEXT/ASS
Codec ID/Info                  : Advanced Sub Station Alpha
Duration                       : 1 h 9 min
Bit rate                       : 54 b/s
Count of elements              : 473
Compression mode               : Lossless
Stream size                    : 27.8 KiB (0%)
Title                          : 繁体字幕
Language                       : Chinese
Default                        : No
Forced                         : No
13429_PGW4N6EAPK8US2C.jpg
游客,如果您要查看本帖隐藏内容请回复


回复

使用道具 举报

0

主题

46

帖子

163

积分

注册会员

Rank: 2

积分
163
影币
117
发表于 2018-8-29 17:51:27 | 显示全部楼层
謝樓主發佈這高清資源
回复

使用道具 举报

0

主题

2

帖子

23

积分

新手上路

Rank: 1

积分
23
影币
20
发表于 2019-12-25 17:17:38 | 显示全部楼层
DSAFSGG GFDG  
回复

使用道具 举报

0

主题

1

帖子

23

积分

新手上路

Rank: 1

积分
23
影币
22
发表于 2021-2-2 00:44:06 | 显示全部楼层
感谢搂住发布稀罕资源!
回复

使用道具 举报

您需要登录后才可以回帖 登录 | 立即注册

本版积分规则

×本站发帖友情提示
1、注册用户在本社区发表、转载的任何作品仅代表其个人观点,不代表本社区认同其观点。
2、如果存在违反国家相关法律、法规、条例的行为,我们有权在不经作者准许的情况下删除其在本论坛所发表的文章。
3、所有网友不要盗用有明确版权要求的作品,转贴请注明来源,否则文责自负。
4、本社区保护注册用户个人资料,但是在自身原因导致个人资料泄露、丢失、被盗或篡改,本论坛概不负责,也不承担相应法律责任。

快速回复 返回顶部 返回列表